Niti9.FoRUmTh.CoM มุมพักผ่อนของคนออนไลน์

โหลดมวยปล้ำ WWE Raw,NXT,SuperstarsSmackdown,iMPACT Wrestling,หนังมาสเตอร์,โปรแกรม,เกม
 
บ้านบ้าน  CalendarCalendar  ช่วยเหลือช่วยเหลือ  ค้นหาค้นหา  รายชื่อสมาชิกรายชื่อสมาชิก  กลุ่มผู้ใช้กลุ่มผู้ใช้  สมัครสมาชิก(Register)สมัครสมาชิก(Register)  เข้าสู่ระบบ(Log in)เข้าสู่ระบบ(Log in)  
ตอบShare | 
 

 [Mini-HD] Johnny English Reborn (2011) [720p]-[พากย์ : ไทย/อังกฤษ][ซับ : ไทย/อังกฤษ]

อ่านหัวข้อก่อนหน้า อ่านหัวข้อถัดไป Go down 
ผู้ตั้งข้อความ
djgamelife



จำนวนข้อความ: 317
Join date: 27/06/2011

ตั้งหัวข้อเรื่อง: [Mini-HD] Johnny English Reborn (2011) [720p]-[พากย์ : ไทย/อังกฤษ][ซับ : ไทย/อังกฤษ]   Thu Jan 12, 2012 7:44 pm



[Mini-HD] Johnny English Reborn : พยัคฆ์ร้าย ศูนย์ ศูนย์ ก๊าก..สายลับกลับมาป่วน (2011) [720p]-[พากย์ : ไทย/อังกฤษ][ซับ : ไทย/อังกฤษ]

ชื่ออังกฤษ Johnny English Reborn
ชื่อไทย พยัคฆ์ร้าย ศูนย์ ศูนย์ ก๊าก สายลับกลับมาป่วน
ประเภทหนัง Action/Comedy
ผู้กำกับ Oliver Parker
ผู้แต่ง -
วันที่เข้าฉาย 15 September 2011
ความยาวหนัง -
นักแสดง Rowan Atkinson, Ben Miller, Gillian Anderson, Dominic West, Rosamund Pike, Daniel Kaluuya
เรทภาพยนตร์ - ไทย
(ดูรายละเอียด) ภาพยนตร์ที่เหมาะสมกับผู้มีอายุตั้งแต่ 13 ปีขึ้นไป
เรทภาพยนตร์ - สากล -
สถานที่ถ่ายทำ -
ภาษา -
เว็บไซต์ -

พยัคฆ์ร้าย ศูนย์ ศูนย์ ก๊าก สายลับกลับมาป่วน | เรื่องย่อ
โรแวน แอทคินสัน กลับมารับบทสายลับจำเป็นที่ไม่รู้จักทั้งความหวาดกลัวหรืออันตรายในภาพยนตร์ตลกทริลเลอร์สายลับเรื่อง Johnny English Reborn ในการผจญภัยครั้งล่าสุดนี้ สายลับสุดเฟอะฟะแห่งสหราชอาณาจักร ต้องหยุดกลุ่มมือสังหารระดับโลกก่อนที่พวกนั้นจะกำจัดผู้นำของโลก และก่อให้เกิดเหตุวุ่นวายไปทั่วโลก

พยัคฆ์ร้าย ศูนย์ ศูนย์ ก๊าก สายลับกลับมาป่วน | ตัวอย่าง
http://www.youtube.com/watch?v=LOSZLgzgnBs

พยัคฆ์ร้าย ศูนย์ ศูนย์ ก๊าก สายลับกลับมาป่วน l รายละเอียดไฟล์
General
Complete name : Johnny.English.Reborn.2011.720p.x264.DTS.AC3-EN.AC3-TH.sakwor=CtHts=.mkv
Format : Matroska
Format version : Version 2
File size : 3.38 GiB
Duration : 1h 41mn
Overall bit rate : 4 783 Kbps
Encoded date : UTC 2012-01-11 01:35:00
Writing application : mkvmerge v3.2.0 ('Beginnings') built on Feb 12 2010 16:46:17
Writing library : libebml v0.7.9 + libmatroska v0.8.1

Video
ID : 1
Format : AVC
Format/Info : Advanced Video Codec
Format profile : High@L5.1
Format settings, CABAC : Yes
Format settings, ReFrames : 5 frames
Codec ID : V_MPEG4/ISO/AVC
Duration : 1h 41mn
Bit rate : 2 500 Kbps
Width : 1 280 pixels
Height : 720 pixels
Display aspect ratio : 16:9
Frame rate mode : Variable
Frame rate : 23.976 fps
Color space : YUV
Chroma subsampling : 4:2:0
Bit depth : 8 bits
Scan type : Progressive
Bits/(Pixel*Frame) : 0.113
Stream size : 1.70 GiB (50%)
Title : Johnny.English.Reborn.2011.720p.x264.DTS.AC3-EN.AC3-TH.sakwor=CtHts=
Writing library : x264 core 116 r2019M 9cc407d
Encoding settings : cabac=1 / ref=6 / deblock=1:1:1 / analyse=0x3:0x133 / me=hex / subme=7 / psy=1 / psy_rd=0.40:0.20 / mixed_ref=1 / me_range=16 / chroma_me=1 / trellis=1 / 8x8dct=1 / cqm=0 / deadzone=21,11 / fast_pskip=1 / chroma_qp_offset=-3 / threads=8 / sliced_threads=0 / nr=0 / decimate=1 / interlaced=0 / bluray_compat=0 / constrained_intra=0 / bframes=5 / b_pyramid=1 / b_adapt=2 / b_bias=0 / direct=3 / weightb=1 / open_gop=0 / weightp=2 / keyint=230 / keyint_min=23 / scenecut=40 / intra_refresh=0 / rc_lookahead=40 / rc=2pass / mbtree=1 / bitrate=2500 / ratetol=1.0 / qcomp=0.60 / qpmin=10 / qpmax=51 / qpstep=4 / cplxblur=20.0 / qblur=0.5 / ip_ratio=1.40 / aq=1:0.60
Language : English
Default : Yes
Forced : No

Audio #1
ID : 2
Format : AC-3
Format/Info : Audio Coding 3
Mode extension : CM (complete main)
Codec ID : A_AC3
Duration : 1h 41mn
Bit rate mode : Constant
Bit rate : 384 Kbps
Channel(s) : 6 channels
Channel positions : Front: L C R, Side: L R, LFE
Sampling rate : 48.0 KHz
Bit depth : 16 bits
Compression mode : Lossy
Stream size : 278 MiB (8%)
Title : AC3 DVD MASTER
Language : Thai
Default : No
Forced : No

Audio #2
ID : 3
Format : DTS
Format/Info : Digital Theater Systems
Codec ID : A_DTS
Duration : 1h 41mn
Bit rate mode : Constant
Bit rate : 1 510 Kbps
Channel(s) : 6 channels
Channel positions : Front: L C R, Side: L R, LFE
Sampling rate : 48.0 KHz
Bit depth : 24 bits
Compression mode : Lossy
Stream size : 1.07 GiB (32%)
Title : DTS 1510 Kbps by jukjunjao
Language : English
Default : No
Forced : No

Audio #3
ID : 4
Format : AC-3
Format/Info : Audio Coding 3
Mode extension : CM (complete main)
Codec ID : A_AC3
Duration : 1h 41mn
Bit rate mode : Constant
Bit rate : 384 Kbps
Channel(s) : 6 channels
Channel positions : Front: L C R, Side: L R, LFE
Sampling rate : 48.0 KHz
Bit depth : 16 bits
Compression mode : Lossy
Stream size : 278 MiB (8%)
Title : AC3
Language : English
Default : No
Forced : No

Text #1
ID : 5
Format : VobSub
Muxing mode : zlib
Codec ID : S_VOBSUB
Codec ID/Info : The same subtitle format used on DVDs
Title : LOW
Language : Thai
Default : No
Forced : No

Text #2
ID : 6
Format : VobSub
Muxing mode : zlib
Codec ID : S_VOBSUB
Codec ID/Info : The same subtitle format used on DVDs
Title : DVD MASTER
Language : Thai
Default : No
Forced : No

Text #3
ID : 7
Format : VobSub
Muxing mode : zlib
Codec ID : S_VOBSUB
Codec ID/Info : The same subtitle format used on DVDs
Title : DVD MASTER
Language : English
Default : No
Forced : No



DOWNLOAD : putlocker.computlocker.com 937735AD3A7DD3EC
PASSWORD : 1
CREDIT : jukjunjao l Legendrider l xmen9 l Rip & Modified by sakwor


ขึ้นไปข้างบน Go down
ดูข้อมูลส่วนตัว
epepo



จำนวนข้อความ: 2
Join date: 13/01/2012

ตั้งหัวข้อเรื่อง: Re: [Mini-HD] Johnny English Reborn (2011) [720p]-[พากย์ : ไทย/อังกฤษ][ซับ : ไทย/อังกฤษ]   Wed Jan 25, 2012 8:44 am

Thank Krup...
ขึ้นไปข้างบน Go down
ดูข้อมูลส่วนตัว
 

[Mini-HD] Johnny English Reborn (2011) [720p]-[พากย์ : ไทย/อังกฤษ][ซับ : ไทย/อังกฤษ]

อ่านหัวข้อก่อนหน้า อ่านหัวข้อถัดไป ขึ้นไปข้างบน 
หน้า 1 จาก 1

 Similar topics

-
» Reborn 321 : ฮิมาริ เคียวยะ ปะทะ ซูซูกิ อเดลไฮด์
» Amazing LOLITA Scandal Daddy VS. Daughter [*[V.I.P. MINI MOVIE]*]
» Amazing LOLITA Scandal Daddy VS. Daughter *V.I.P. MINI MOVIE*

Permissions in this forum:คุณสามารถพิมพ์ตอบได้
Niti9.FoRUmTh.CoM มุมพักผ่อนของคนออนไลน์ ::  :: -
ตอบ