Niti9.FoRUmTh.CoM มุมพักผ่อนของคนออนไลน์

โหลดมวยปล้ำ WWE Raw,NXT,SuperstarsSmackdown,iMPACT Wrestling,หนังมาสเตอร์,โปรแกรม,เกม
 
บ้านบ้าน  CalendarCalendar  ช่วยเหลือช่วยเหลือ  ค้นหาค้นหา  รายชื่อสมาชิกรายชื่อสมาชิก  กลุ่มผู้ใช้กลุ่มผู้ใช้  สมัครสมาชิก(Register)สมัครสมาชิก(Register)  เข้าสู่ระบบ(Log in)เข้าสู่ระบบ(Log in)  
ตอบShare | 
 

 [HD] Johnny English Reborn (2011) [1080p]-[พากย์ : ไทย/อังกฤษ][ซับ : ไทย/อังกฤษ]

อ่านหัวข้อก่อนหน้า อ่านหัวข้อถัดไป Go down 
ผู้ตั้งข้อความ
djgamelife



จำนวนข้อความ: 317
Join date: 27/06/2011

ตั้งหัวข้อเรื่อง: [HD] Johnny English Reborn (2011) [1080p]-[พากย์ : ไทย/อังกฤษ][ซับ : ไทย/อังกฤษ]   Sun Jan 15, 2012 10:29 pm



[HD] Johnny English Reborn : พยัคฆ์ร้าย ศูนย์ ศูนย์ ก๊าก..สายลับกลับมาป่วน (2011) [1080p]-[พากย์ : ไทย/อังกฤษ][ซับ : ไทย/อังกฤษ]

ชื่ออังกฤษ Johnny English Reborn
ชื่อไทย พยัคฆ์ร้าย ศูนย์ ศูนย์ ก๊าก สายลับกลับมาป่วน
ประเภทหนัง Action/Comedy
ผู้กำกับ Oliver Parker
ผู้แต่ง -
วันที่เข้าฉาย 15 September 2011
ความยาวหนัง -
นักแสดง Rowan Atkinson, Ben Miller, Gillian Anderson, Dominic West, Rosamund Pike, Daniel Kaluuya
เรทภาพยนตร์ - ไทย
(ดูรายละเอียด) ภาพยนตร์ที่เหมาะสมกับผู้มีอายุตั้งแต่ 13 ปีขึ้นไป
เรทภาพยนตร์ - สากล -
สถานที่ถ่ายทำ -
ภาษา -
เว็บไซต์ -

พยัคฆ์ร้าย ศูนย์ ศูนย์ ก๊าก สายลับกลับมาป่วน | เรื่องย่อ
โรแวน แอทคินสัน กลับมารับบทสายลับจำเป็นที่ไม่รู้จักทั้งความหวาดกลัวหรืออันตรายในภาพยนตร์ตลกทริลเลอร์สายลับเรื่อง Johnny English Reborn ในการผจญภัยครั้งล่าสุดนี้ สายลับสุดเฟอะฟะแห่งสหราชอาณาจักร ต้องหยุดกลุ่มมือสังหารระดับโลกก่อนที่พวกนั้นจะกำจัดผู้นำของโลก และก่อให้เกิดเหตุวุ่นวายไปทั่วโลก

พยัคฆ์ร้าย ศูนย์ ศูนย์ ก๊าก สายลับกลับมาป่วน | ตัวอย่าง
http://www.youtube.com/watch?v=LOSZLgzgnBs

พยัคฆ์ร้าย ศูนย์ ศูนย์ ก๊าก สายลับกลับมาป่วน l รายละเอียดไฟล์
General
Complete name : Johnny.English.Reborn.2011.BluRay.1080p.x264.DTS-LTT.AC3-TH.sakwor=CtHts=.mkv
Format : Matroska
Format version : Version 2
File size : 5.66 GiB
Duration : 3h 20mn
Overall bit rate : 4 048 Kbps
Encoded date : UTC 2012-01-13 13:53:19
Writing application : mkvmerge v3.2.0 ('Beginnings') built on Feb 12 2010 16:46:17
Writing library : libebml v0.7.9 + libmatroska v0.8.1

Video
ID : 1
Format : AVC
Format/Info : Advanced Video Codec
Format profile : High@L4.1
Format settings, CABAC : Yes
Format settings, ReFrames : 7 frames
Codec ID : V_MPEG4/ISO/AVC
Duration : 3h 20mn
Bit rate : 2 074 Kbps
Nominal bit rate : 6 102 Kbps
Width : 1 920 pixels
Height : 800 pixels
Display aspect ratio : 2.40:1
Frame rate : 23.976 fps
Color space : YUV
Chroma subsampling : 4:2:0
Bit depth : 8 bits
Scan type : Progressive
Bits/(Pixel*Frame) : 0.056
Stream size : 2.90 GiB (51%)
Title : Johnny.English.Reborn.2011.BluRay.1080p.x264.DTS-LTT.AC3-TH.sakwor=CtHts=
Writing library : x264 core 93 r1538 bd72d46
Encoding settings : cabac=1 / ref=7 / deblock=1:0:0 / analyse=0x3:0x133 / me=umh / subme=9 / psy=1 / psy_rd=1.00:0.00 / mixed_ref=1 / me_range=32 / chroma_me=1 / trellis=1 / 8x8dct=1 / cqm=0 / deadzone=21,11 / fast_pskip=1 / chroma_qp_offset=-2 / threads=4 / sliced_threads=0 / nr=0 / decimate=1 / interlaced=0 / constrained_intra=0 / bframes=3 / b_pyramid=0 / b_adapt=1 / b_bias=0 / direct=3 / wpredb=1 / wpredp=2 / keyint=250 / keyint_min=25 / scenecut=40 / intra_refresh=0 / rc_lookahead=40 / rc=2pass / mbtree=1 / bitrate=6102 / ratetol=1.0 / qcomp=0.60 / qpmin=10 / qpmax=51 / qpstep=4 / cplxblur=20.0 / qblur=0.5 / ip_ratio=1.40 / aq=1:1.00
Language : English
Default : Yes
Forced : No

Audio #1
ID : 2
Format : DTS
Format/Info : Digital Theater Systems
Codec ID : A_DTS
Duration : 3h 20mn
Bit rate mode : Constant
Bit rate : 1 510 Kbps
Channel(s) : 6 channels
Channel positions : Front: L C R, Side: L R, LFE
Sampling rate : 48.0 KHz
Bit depth : 24 bits
Compression mode : Lossy
Stream size : 2.11 GiB (37%)
Title : DTS
Language : English
Default : Yes
Forced : No

Audio #2
ID : 3
Format : AC-3
Format/Info : Audio Coding 3
Mode extension : CM (complete main)
Codec ID : A_AC3
Duration : 3h 20mn
Bit rate mode : Constant
Bit rate : 384 Kbps
Channel(s) : 6 channels
Channel positions : Front: L C R, Side: L R, LFE
Sampling rate : 48.0 KHz
Bit depth : 16 bits
Compression mode : Lossy
Stream size : 550 MiB (9%)
Title : AC3
Language : Thai
Default : No
Forced : No

Text #1
ID : 4
Format : VobSub
Muxing mode : zlib
Codec ID : S_VOBSUB
Codec ID/Info : The same subtitle format used on DVDs
Title : LOW
Language : Thai
Default : No
Forced : No

Text #2
ID : 5
Format : VobSub
Muxing mode : zlib
Codec ID : S_VOBSUB
Codec ID/Info : The same subtitle format used on DVDs
Title : DVD MASTER
Language : Thai
Default : No
Forced : No

Text #3
ID : 6
Format : VobSub
Muxing mode : zlib
Codec ID : S_VOBSUB
Codec ID/Info : The same subtitle format used on DVDs
Title : DVD MASTER
Language : English
Default : No
Forced : No

Text #4
ID : 7
Format : UTF-8
Codec ID : S_TEXT/UTF8
Codec ID/Info : UTF-8 Plain Text
Title : SRT
Language : English
Default : No
Forced : No



DOWNLOAD : putlocker.computlocker.com 6DC92704B1145B3D
PASSWORD : 1
CREDIT : jukjunjao l Legendrider l xmen9 l Rip & Modified by sakwor





ขึ้นไปข้างบน Go down
ดูข้อมูลส่วนตัว
testniti9



จำนวนข้อความ: 2
Join date: 16/01/2012

ตั้งหัวข้อเรื่อง: Re: [HD] Johnny English Reborn (2011) [1080p]-[พากย์ : ไทย/อังกฤษ][ซับ : ไทย/อังกฤษ]   Mon Jan 16, 2012 8:15 am

ขอบคุณครับ
ขึ้นไปข้างบน Go down
ดูข้อมูลส่วนตัว
 

[HD] Johnny English Reborn (2011) [1080p]-[พากย์ : ไทย/อังกฤษ][ซับ : ไทย/อังกฤษ]

อ่านหัวข้อก่อนหน้า อ่านหัวข้อถัดไป ขึ้นไปข้างบน 
หน้า 1 จาก 1

 Similar topics

-
» Reborn 321 : ฮิมาริ เคียวยะ ปะทะ ซูซูกิ อเดลไฮด์

Permissions in this forum:คุณสามารถพิมพ์ตอบได้
Niti9.FoRUmTh.CoM มุมพักผ่อนของคนออนไลน์ ::  :: -
ตอบ